Alter Bridge 2016 The Last Hero torrent download

seeders: 785
leechers: 220
updated:
Added ago by KATJohnRambo ***** in Music
Torrent Downloaded 10 times.
Info Hash: 359498C6C06E99C85F800D21DA5A5E42FC6E4974


Torrent Files

Alter Bridge - 2016 - The Last Hero (Size: 162.8 MB)
  Alter Bridge - 2016 - The Last Hero 162.8 MB

Torrent Description







--------------------------------------------------------------------------------
Analyzed: Alter Bridge / The Last Hero
--------------------------------------------------------------------------------

DR         Peak         RMS     Duration Track
--------------------------------------------------------------------------------
DR13      -6.47 dB   -21.13 dB      5:05 01-Show Me A Leader
DR11      -7.46 dB   -20.46 dB      4:28 02-The Writing On The Wall
DR12      -7.98 dB   -21.88 dB      5:46 03-The Other Side
DR12      -7.37 dB   -21.41 dB      4:41 04-My Champion
DR11      -7.79 dB   -20.70 dB      4:15 05-Poisen In Your Veins
DR12      -7.00 dB   -21.41 dB      5:37 06-Cradle To The Grave
DR12      -7.67 dB   -21.49 dB      4:10 07-Losing Patience
DR12      -7.67 dB   -21.92 dB      6:46 08-This Side Of Fate
DR12      -8.18 dB   -22.70 dB      4:39 09-You Will Be Remembered
DR12      -7.98 dB   -21.95 dB      4:23 10-Crows On A Wire
DR12      -8.79 dB   -23.23 dB      4:10 11-Twilight
DR12      -7.22 dB   -21.70 dB      5:01 12-Island Of Fools
DR12      -8.07 dB   -22.22 dB      6:36 13-The Last Hero
DR13      -8.91 dB   -23.06 dB      5:29 14-Last Of Our Kind
--------------------------------------------------------------------------------

Number of tracks:  14
Official DR value: DR12

Samplerate:        48000 Hz
Channels:          2
Bitrate:           320 kbps
Codec:             MP3
================================================================================





Related Torrents

torrent name size age seed leech
385.37 MB 31 seconds 57 30
1.03 GB 31 seconds 399 50
115.85 MB 31 seconds 632 155
109.05 MB 31 seconds 289 90
3.79 GB 31 seconds 493 486

Sharing Widget


Download torrent
162.8 MB
seeders:1214
leechers:386
Alter Bridge - 2016 - The Last Hero



To share this torrent use the code below and insert it into comments, status messages, forum posts or your signature.

Torrent: Alter Bridge - 2016 - The Last Hero

Comments

Latest Searches